#TITLE:Around The World;
#SUBTITLE:~Paradox original~;
#ARTIST:ATC;
#TITLETRANSLIT:;
#SUBTITLETRANSLIT:;
#ARTISTTRANSLIT:;
#CREDIT:;
#BANNER:Around The World.png;
#BACKGROUND:Around The World-BG.png;
#LYRICSPATH:;
#CDTITLE:Prdx.png;
#MUSIC:Around The World.mp3;
#OFFSET:0.200;
#SAMPLESTART:50.330;
#SAMPLELENGTH:14.540;
#SELECTABLE:YES;
#BPMS:0.000=132.000;
#STOPS:;
#BGCHANGES:;
// cache tags:
#FIRSTBEAT:9.000;
#LASTBEAT:208.500;
#SONGFILENAME:Songs/Chilean Keyboard Megapack 3/(Paradox) Around the World/Around The World.sm;
#HASMUSIC:1;
#HASBANNER:1;
#MUSICLENGTH:95.947;
// end cache tags

//---------------dance-single - ----------------
#NOTES:
     dance-single:
     :
     Challenge:
     10:
     0.889,0.924,0.605,0.042,0.964,535.000,58.000,4.000,0.000,0.000:
0000
0000
0000
0000
,
0000
0000
0000
0000
,
0000
0000
0001
1000
0100
0010
0001
1000
,
0100
0010
0001
1000
0010
0001
1000
0010
,
0100
0000
1000
0000
0010
0000
0001
0000
1000
0000
0100
0001
0000
0000
1000
0000
,
0010
0100
0010
0001
1000
0010
0100
1000
,
0001
0000
0010
0000
0100
0000
1000
0000
0010
0000
1000
0001
0000
0000
0010
0000
,
0001
0010
0100
1000
0010
0001
0100
1000
,
0010
0000
0100
0000
0001
0000
0010
0000
1000
0000
0100
0001
0000
0000
1000
0000
,
0001
0010
1000
0100
0010
1000
0001
0100
,
0010
0000
0100
0000
0001
0000
0010
0000
0100
0000
1000
0001
0000
0000
0000
0000
,
0000
0000
0100
0100
0100
0000
0010
0010
,
0010
0000
0000
0000
1000
0100
0010
0001
0010
0100
1000
0010
0100
0010
0100
0001
,
0010
0001
1000
0010
0100
0001
0010
0100
1000
0010
0100
0001
1000
0001
1000
0100
,
0010
0000
0000
0000
0100
0001
1000
0100
0010
0001
0100
0010
1000
0100
0010
0001
,
0100
0001
1000
0010
0100
0010
0100
0001
0010
0100
1000
0010
0100
0001
0010
0100
,
1000
0000
0000
0000
0010
0001
0100
0001
1000
0100
1000
0010
0100
0010
0100
0001
,
0010
0001
1000
0010
0100
0001
1000
0010
0100
0001
1000
0010
0100
0001
0010
0100
,
1000
0000
0000
0000
0010
0100
1000
0010
0100
0001
0100
0001
0010
0100
0010
0100
,
1000
0001
0010
0100
1000
0001
0100
0001
0010
0100
1000
0001
0100
0010
0100
0001
,
1000
0000
0000
0000
0001
1000
0001
1000
0110
0000
0000
0000
0001
1000
0100
0010
,
0101
0000
0000
0000
0010
0100
1000
0100
0011
0000
0000
0000
0010
0100
0010
0100
,
1001
0000
0000
0000
1000
0001
1000
0001
0110
0000
0000
0000
1000
0100
1000
0100
,
0011
0000
0000
0000
1000
0010
1000
0010
1100
0000
0000
0000
0010
0001
0100
0001
,
1010
0000
0000
0000
0001
1000
0001
1000
1001
0000
0000
0000
0010
0001
1000
0100
,
1001
0000
0000
0000
0001
0010
0100
0001
1010
0000
0000
0000
0010
1000
0100
0001
,
1010
0000
0000
0000
0001
0010
0100
1000
0011
0000
0000
0000
0001
1000
0100
0010
,
1001
0202
0000
0000
,
0303
0000
0000
0000
1000
0001
1000
0100
0010
0001
0010
0100
1000
0010
0100
0001
,
0010
0100
1000
0010
1000
0001
0100
0010
1000
0001
0100
0010
1000
0001
0010
0100
,
1000
0010
0100
0001
0010
0001
1000
0001
0100
0010
0100
1000
0010
0100
0010
0100
,
0001
0010
0001
0010
0100
1000
0010
0100
0010
1000
0100
0010
0001
0100
0010
1000
,
0010
0100
0001
0010
0100
1000
0100
1000
0010
0100
0010
1000
0100
0010
0001
1000
,
0010
0100
0010
1000
0010
0100
0001
0010
0001
1000
0100
0010
0001
0100
0010
0100
,
0001
1000
0100
0010
0010
0100
1000
0010
0100
0001
1000
0010
0100
0001
1000
0010
,
0100
2002
0000
0000
,
3003
0000
0000
0000
0001
0000
1000
0000
0001
0000
0100
0010
0000
0000
1000
0100
,
0010
0001
0010
0100
1001
0010
0100
0001
0010
0100
1000
0010
1100
0001
0010
0001
,
0010
0100
0000
0000
1000
0000
0001
0000
1000
0000
0100
0010
0000
0000
0010
1000
,
0010
0100
0010
0100
1001
1000
0100
0010
0001
0001
0010
0100
1010
0001
0010
0100
,
0010
0001
0000
0000
0010
0000
0100
0000
0001
0000
1000
0100
0000
0000
0010
1000
,
0001
0100
0010
1000
0101
0010
0001
0100
0001
1000
0100
0010
0101
1000
0100
0010
,
0001
1000
0000
0000
1001
0000
1001
0000
1000
0000
0100
0010
0000
0000
0010
0100
,
0010
0001
1000
0100
1010
0001
1000
0010
0001
0100
1000
0001
0011
0100
1000
0010
,
0100
0000
0001
0100
0010
1000
0001
0010
,
0100
0001
0010
0001
1000
0100
0010
1000
,
0010
0100
0001
0010
1000
0001
0100
0010
,
1000
0001
0010
0100
1000
0001
0010
0100
,
0001
1000
0110
1010
0011
1100
0011
0101
,
1010
0011
0101
1100
0110
0011
1100
0110
,
1001
0101
0110
1001
0110
1100
0011
0011
,
1010
0011
0110
1001
0110
0011
0101
1010
,
0101
1010
0000
0000
0000
0000
0000
0000
;
